Du bist nicht angemeldet oder registriert! Gäste können bei weitem nicht alle Funktionen des Forums nutzen. Bitte melde dich an oder klicke hier um dich zu registrieren!

bin Datei brennen

Hier wird den Newbis geholfen. Keine Frage ist hier zu dumm. :-) Bitte vorher das FAQ lesen!

Moderator: Team

UNREAD_POSTAuthor: vfarkas » 20.01.2006, 12:59

Hi !!

M?chte gerne zwei unterschiedliche bin Dateien brennen.

Also Nero angeschmissen und unter image - alle Dateien anzeigen und los.


8-| Denkste :-|

Unbekanntes Dateiformat.

Mu? ich die mit einem anderen Programm brennen oder was kann ich sonst noch machen ?

vfarkas
Stallbursche
Loyalty2Loyalty2Loyalty2Loyalty2Loyalty2Loyalty2Loyalty2Loyalty2Loyalty2Loyalty2
 
Status: Offline
Beiträge: 77
Registriert: 10.09.2003, 17:17

UNREAD_POSTAuthor: Trabbi28 » 20.01.2006, 13:02

musst dir f?r die bin dateien die cue dateien ziehen und dann mit nero brennen....dan funzt dat auch..... :o
Bild
Benutzeravatar
Trabbi28
Master of Desaster
Loyalty2Loyalty2Loyalty2Loyalty2Loyalty2Loyalty2Loyalty2Loyalty2Loyalty2Loyalty
 
Status: Offline
Beiträge: 594
Registriert: 18.02.2005, 11:49

UNREAD_POSTAuthor: Wicked » 20.01.2006, 13:13

oder du mountest das mit einem image drive. zb daemon tool oder alcohol
Benutzeravatar
Wicked
Moderator
Moderator
Loyalty2Loyalty2Loyalty2Loyalty2Loyalty2Loyalty2Loyalty2Loyalty2Loyalty2Loyalty
 
Status: Offline
Beiträge: 4837
Registriert: 13.03.2005, 16:57

UNREAD_POSTAuthor: Gast » 20.01.2006, 13:16

nimm einfach CDR Win 5.05, dmit kannst du jede bin -Datei auch ohne cue-Datei brennen!

Gru?
Remi

Gast
 
Status: Offline

UNREAD_POSTAuthor: DarkSnoopy » 20.01.2006, 13:19

Man kann auch die CUE Datei selber schreiben.

Hier mal ne kleine Anleitung:

F?r einen Film:

FILE "Hier der Name der .bin Datei rein.bin" BINARY
TRACK 01 MODE2/2352
FLAGS DCP
INDEX 01 00:00:00
TRACK 02 MODE2/2352
FLAGS DCP
INDEX 00 00:04:00
INDEX 01 00:06:00

F?r ein Spiel:

FILE "Hier der Name der .bin Datei rein.BIN" BINARY
TRACK 01 MODE1/2352
INDEX 01 00:00:00

DarkSnoopy
Master of Desaster
Loyalty2Loyalty2Loyalty2Loyalty2Loyalty2Loyalty2Loyalty2Loyalty2Loyalty2Loyalty
 
Status: Offline
Beiträge: 722
Registriert: 06.02.2005, 21:53

UNREAD_POSTAuthor: Gucky2 » 20.01.2006, 13:24

Kann sein,das dies File Defekt ist.:-|
bin Dateien brennt Nero sonst immer...
Hast Du schon mal versucht,mit
ISO Buster zu ?ffnen...
Bild
Benutzeravatar
Gucky2
Forenjunkie
Loyalty2Loyalty2Loyalty2Loyalty2Loyalty2Loyalty2Loyalty2Loyalty2Loyalty2Loyalty
 
Status: Offline
Beiträge: 1023
Registriert: 07.07.2005, 01:43

UNREAD_POSTAuthor: DarkLord » 20.01.2006, 18:13

Mit Iso-Buster entpacken und gut ist.|sub|

DarkLord
VIP
Loyalty2Loyalty2Loyalty2Loyalty2Loyalty2Loyalty2Loyalty2Loyalty2Loyalty2Loyalty2
 
Status: Offline
Beiträge: 11985
Registriert: 23.09.2003, 18:06

UNREAD_POSTAuthor: Schnappo » 25.01.2006, 22:33

hatte dass problem auch schon mal,bei mir gings mit dem iso buster,wie dark lord schon sagte.
[align=center]Bild[/align]

[align=center]Design by EvilTwin[/align]
Benutzeravatar
Schnappo
Master of Desaster
Loyalty2Loyalty2Loyalty2Loyalty2Loyalty2Loyalty2Loyalty2Loyalty2Loyalty2
 
Status: Offline
Beiträge: 692
Registriert: 17.01.2006, 20:33


Zurück zu Einsteiger-Forum

Wer ist online?

Mitglieder: Majestic-12 [Bot]